<?xml version="1.0" standalone="no"?>
<!DOCTYPE svg PUBLIC "-//W3C//DTD SVG 1.1//EN" "http://www.w3.org/Graphics/SVG/1.1/DTD/svg11.dtd">
<svg xmlns="http://www.w3.org/2000/svg">
<defs >
<font id="Merriweather" horiz-adv-x="616" ><font-face
    font-family="Merriweather"
    units-per-em="1000"
    panose-1="0 0 5 0 0 0 0 0 0 0"
    ascent="984"
    descent="-273"
    alphabetic="0" />
<glyph unicode=" " glyph-name="space" horiz-adv-x="237" />
<glyph unicode="!" glyph-name="exclam" horiz-adv-x="340" d="M313 868L197 245H128L196 868H313ZM73 80T94 103T144 126Q171 126 184 111T198 71Q198 35 176 13T123 -9Q101 -9 87 5T73 45Q73 80 94 103Z" />
<glyph unicode="&quot;" glyph-name="quotedbl" horiz-adv-x="509" d="M264 824L187 472H118L160 824H264ZM505 824L428 472H359L401 824H505Z" />
<glyph unicode="#" glyph-name="numbersign" horiz-adv-x="686" d="M54 178L60 242H165L195 437H91L96 500H204L230 663H309L284 500H449L477 663H556L529 500H638L633 437H521L489 242H596L590 178H478L451 0H373L399 178H233L202 0H125L154 178H54ZM440 437H274L244
242H409L440 437Z" />
<glyph unicode="$" glyph-name="dollar" horiz-adv-x="588" d="M213 -10Q156 -5 108 8T45 34L69 176H135L140 74Q161 57 195 48T265 38Q334 38 378 72T423 169Q423 205 406 232T362 279T287 330Q232 363 198 389T140 454T116 542Q116 603 145 649T226 721T342
752L356 841H431L416 751Q507 743 555 713L532 584H470L458 676Q440 688 412 695T350 703Q297 703 256 673T214 582Q214 545 233 517T280 468T361 416Q412 386 445 360T501 298T524 212Q525 119 461 59T288 -10L271 -112H197L213 -10Z" />
<glyph unicode="%" glyph-name="percent" horiz-adv-x="933" d="M733 747L270 0H194L656 747H733ZM165 363T128 406T91 515Q91 567 118 615T192 694T296 724Q366 724 401 685T437 579Q437 525 411 475T339 394T232 363Q165 363 128 406ZM279 407T304 434T341 500T354
576Q354 625 337 652T284 680Q249 680 223 654T184 590T171 516Q171 466 189 437T244 407Q279 407 304 434ZM503 235T530 283T604 362T708 392Q779 392 814 353T850 247Q850 193 824 143T751 61T644 30Q577 30 540 73T503 183Q503 235 530 283ZM583 135T601 106T655
76Q690 76 715 103T752 169T765 243Q765 293 748 320T696 347Q661 347 636 322T597 258T583 184Q583 135 601 106Z" />
<glyph unicode="&amp;" glyph-name="ampersand" horiz-adv-x="803" d="M182 -12T107 36T32 174Q32 246 78 291T211 378Q193 421 181 468T168 553Q168 615 198 661T281 732T401 757Q490 757 533 716T576 616Q576 563 546 523T471 456T353 391L328 379Q420 215 527
119Q571 169 571 262Q571 290 563 320Q554 321 535 321Q515 321 495 316T466 304V378Q475 386 493 393T537 400Q557 400 593 394Q633 388 658 388Q700 388 719 405T745 469H784Q786 447 786 437Q786 378 762 343T689 308Q679 308 659 310Q662 286 662 281Q662 161
573 82Q602 63 624 57Q667 44 704 47L702 3Q676 -5 653 -7T599 -10Q531 -10 480 26Q393 -12 295 -12Q182 -12 107 36ZM387 461T430 502T473 608Q473 650 455 679T393 709Q334 709 303 671T271 570Q271 530 281 491T306 421Q387 461 430 502ZM385 41T437 61Q373
121 332 178T237 328Q192 297 167 262T141 183Q141 115 186 78T308 41Q385 41 437 61Z" />
<glyph unicode="&apos;" glyph-name="quotesingle" horiz-adv-x="268" d="M261 824L184 472H115L157 824H261Z" />
<glyph unicode="(" glyph-name="parenleft" horiz-adv-x="422" d="M94 286T101 351Q119 480 179 588T304 766T405 854L448 822Q419 804 368 744T270 587T203 372Q193 305 193 247Q193 148 216 68T270 -62T325 -132L275 -163H268Q240 -145 200 -94T127 44T94 244Q94
286 101 351Z" />
<glyph unicode=")" glyph-name="parenright" horiz-adv-x="424" d="M334 411T327 346Q309 217 249 109T124 -69T23 -157L-20 -125Q9 -107 60 -47T158 110T225 325Q235 392 235 450Q235 549 212 629T158 759T103 829L153 860H160Q188 842 228 791T301 653T334 453Q334
411 327 346Z" />
<glyph unicode="*" glyph-name="asterisk" horiz-adv-x="667" d="M286 547L338 565L292 584L139 656L194 737L323 632L361 600L357 652L355 825L450 824L415 651L403 601L447 632L599 736L637 654L470 584L420 565L464 546L615 475L561 393L432 498L396 532L399
480L401 308H306L341 481L353 530L310 498L158 395L121 477L286 547Z" />
<glyph unicode="+" glyph-name="plus" horiz-adv-x="660" d="M303 343L227 340H123L131 414H239L313 410L320 494L333 607H414L402 494L387 410L449 414H569L562 340H438L378 343Q378 332 377 322T375 302Q374 294 371 258L357 140H276L289 258L303 343Z" />
<glyph unicode="," glyph-name="comma" horiz-adv-x="275" d="M111 134Q157 119 179 79T201 -9Q201 -89 151 -153T22 -248L-4 -213L-3 -204Q40 -183 71 -138T103 -37Q103 -2 87 24T49 55L50 77L111 134Z" />
<glyph unicode="-" glyph-name="hyphen" horiz-adv-x="627" d="M530 358L518 284H108L120 358H530Z" />
<glyph unicode="." glyph-name="period" horiz-adv-x="241" d="M26 82T47 105T97 128Q125 128 139 112T154 70Q154 34 131 12T78 -10Q56 -10 41 5T26 47Q26 82 47 105Z" />
<glyph unicode="/" glyph-name="slash" horiz-adv-x="417" d="M364 780H446L25 -177H-57L364 780Z" />
<glyph unicode="0" glyph-name="zero" horiz-adv-x="624" d="M160 -8T107 57T54 223Q54 320 94 398T204 522T359 567Q471 567 523 504T575 336Q575 243 536 164T427 39T271 -8Q160 -8 107 57ZM341 40T382 84T444 195T464 333Q464 420 436 470T346 520Q283 520
242 475T182 362T163 227Q163 144 191 92T280 40Q341 40 382 84Z" />
<glyph unicode="1" glyph-name="one" horiz-adv-x="451" d="M158 52L217 458Q130 432 83 423L76 469Q124 479 184 508T288 567L338 555L266 53L378 41L374 0H48L52 41L158 52Z" />
<glyph unicode="2" glyph-name="two" horiz-adv-x="591" d="M118 89T201 157T335 300T385 441Q385 495 354 530T267 566Q217 566 171 543T92 491L66 536Q100 572 163 603T303 634Q372 634 415 605T478 532T497 444Q497 378 444 304T309 164T139 55L436 75L485
165L536 148L494 0H32L22 40Q118 89 201 157Z" />
<glyph unicode="3" glyph-name="three" horiz-adv-x="533" d="M62 -160T6 -150L17 -95Q50 -101 84 -101Q157 -101 218 -71T314 7T350 110Q350 165 314 200T203 232Q192 228 164 221T128 212L136 267Q231 288 293 337T355 453Q355 500 332 531T256 562Q207 562
169 546T90 499L69 545Q100 577 160 604T292 632Q372 632 418 592T465 480Q465 417 412 358T286 270Q375 276 418 233T462 122Q462 47 410 -18T274 -121T100 -160Q62 -160 6 -150Z" />
<glyph unicode="4" glyph-name="four" horiz-adv-x="614" d="M338 0H26L5 38Q74 129 175 314T341 655H358L449 609Q444 599 438 589T427 569Q342 414 278 305T158 124Q109 64 97 48L346 60L371 257L473 285L447 68L562 75L552 0H436L413 -183H314L338 0Z" />
<glyph unicode="5" glyph-name="five" horiz-adv-x="546" d="M73 -84T98 -84Q174 -84 238 -54T340 28T378 136Q378 202 345 240T243 278Q187 278 112 247L89 264L169 623H465L476 632H537L512 543H244L185 312Q207 322 242 330T308 339Q395 339 445 288T496 153Q496
68 442 2T301 -100T119 -137Q104 -137 80 -134T43 -128L50 -79Q73 -84 98 -84Z" />
<glyph unicode="6" glyph-name="six" horiz-adv-x="603" d="M209 -10T160 22T84 109T58 234Q58 353 113 463T265 654T482 767L499 722Q429 698 366 649T256 536T189 407Q216 438 259 459T361 480Q449 480 496 428T544 293Q544 215 510 145T414 33T275 -10Q209
-10 160 22ZM335 42T369 77T421 164T438 270Q438 341 409 379T330 417Q273 417 238 393T178 337Q164 272 164 212Q164 132 193 87T285 42Q335 42 369 77Z" />
<glyph unicode="7" glyph-name="seven" horiz-adv-x="535" d="M154 490L112 381L43 382L76 560H521L536 539L242 -165L139 -131L451 490H154Z" />
<glyph unicode="8" glyph-name="eight" horiz-adv-x="596" d="M52 237T106 292T245 383Q196 424 166 466T136 561Q136 616 166 659T249 727T370 752Q461 752 511 712T561 601Q561 538 515 486T389 395Q453 349 492 301T531 197Q531 135 494 88T396 15T268 -10Q212
-10 163 8T83 66T52 166Q52 237 106 292ZM402 452T435 495T469 595Q469 649 439 678T364 708Q307 708 270 672T233 578Q233 534 262 499T346 426Q402 452 435 495ZM153 115T187 77T282 39Q321 39 354 56T408 105T428 179Q428 213 410 240T365 290T285 350Q229 323
192 278T153 173Q153 115 187 77Z" />
<glyph unicode="9" glyph-name="nine" horiz-adv-x="608" d="M398 567T447 537T522 453T548 328Q548 207 493 95T340 -97T123 -210L106 -165Q176 -142 240 -93T351 20T419 150Q390 119 347 98T245 76Q186 76 145 104T83 180T63 283Q63 354 96 419T191 526T332
567Q398 567 447 537ZM272 516T237 484T185 402T167 304Q167 224 197 182T276 140Q367 140 429 220Q443 276 443 339Q443 420 413 468T322 516Q272 516 237 484Z" />
<glyph unicode=":" glyph-name="colon" horiz-adv-x="265" d="M72 477T93 500T143 523Q171 523 185 507T200 465Q200 429 177 407T124 385Q102 385 87 400T72 442Q72 477 93 500ZM274 82T295 105T345 128Q373 128 387 112T402 70Q402 34 379 12T326 -10Q304 -10
289 5T274 47Q274 82 295 105Z" />
<glyph unicode=";" glyph-name="semicolon" horiz-adv-x="262" d="M363 134Q409 119 431 79T453 -9Q453 -89 403 -153T274 -248L248 -213L249 -204Q292 -183 323 -138T355 -37Q355 -2 339 24T301 55L302 77L363 134ZM68 477T89 500T139 523Q167 523 181 507T196
465Q196 429 173 407T120 385Q98 385 83 400T68 442Q68 477 89 500Z" />
<glyph unicode="&lt;" glyph-name="less" horiz-adv-x="668" d="M596 646L584 552L200 366L540 178L530 86L96 339L103 394L596 646Z" />
<glyph unicode="=" glyph-name="equal" horiz-adv-x="519" d="M480 491L472 417H74L82 491H480ZM445 239L437 165H40L47 239H445Z" />
<glyph unicode="&gt;" glyph-name="greater" horiz-adv-x="668" d="M111 88L123 182L507 368L167 556L177 648L611 395L604 340L111 88Z" />
<glyph unicode="?" glyph-name="question" horiz-adv-x="486" d="M133 247T125 282T117 349Q117 380 136 404T183 447T263 494Q310 517 339 537T388 586Q394 597 397 614T400 648Q400 721 354 763T226 806Q197 806 168 801T120 787L135 857Q147 868 184 878T259
889Q384 889 435 830T486 682Q486 612 452 562Q427 522 389 494T298 437Q251 412 227 391T201 338Q200 314 204 289T213 247L151 229L144 230Q133 247 125 282ZM137 81T158 103T209 126Q236 126 249 111T263 71Q263 35 240 13T187 -9Q165 -9 151 5T137 45Q137 81
158 103Z" />
<glyph unicode="@" glyph-name="at" horiz-adv-x="961" d="M47 334T123 472T324 687T589 764Q688 764 763 725T879 612T920 442Q920 311 876 211T764 56T625 2Q594 2 583 26T572 97Q572 115 578 154T593 233Q554 139 503 70T400 0Q363 0 330 23T277 93T256 208Q256
286 287 361T381 486T531 535Q554 535 586 528T638 507L714 524Q699 467 683 375T659 210Q653 147 653 111Q653 71 671 71Q713 71 754 120T822 247T848 409Q848 508 808 573T702 670T554 702Q428 702 330 629T177 438T123 191Q123 73 168 -12T291 -141T463 -186Q511
-186 563 -175T640 -151L656 -192Q622 -219 568 -234T451 -249Q338 -249 246 -200T101 -57T47 161Q47 334 123 472ZM343 156T362 118T416 80Q445 80 486 138T563 282T615 437Q603 454 575 465T523 477Q461 477 421 438T362 340T343 215Q343 156 362 118Z" />
<glyph unicode="A" glyph-name="A" horiz-adv-x="657" d="M451 744L577 54L657 41L655 0H376L378 41L464 53L437 217H167L92 53L183 41L179 0H-66L-62 41L6 53L342 744H451ZM193 274H429L378 594L372 665L193 274Z" />
<glyph unicode="B" glyph-name="B" horiz-adv-x="646" d="M249 743T268 744T298 746Q354 750 385 750Q503 750 555 704T607 587Q607 511 565 463T442 393Q512 389 557 345T603 237Q603 111 512 52T266 -8Q243 -8 193 -4Q143 0 126 0H6L10 41L81 53L163 688L95
699L100 743H234Q249 743 268 744ZM264 413H329Q405 413 453 454T502 576Q502 638 468 668T360 699Q342 699 314 698T269 693L233 413H264ZM202 50T232 48T284 45Q379 45 433 87T488 222Q488 290 451 323T335 357Q268 357 226 355L187 55Q202 50 232 48Z" />
<glyph unicode="C" glyph-name="C" horiz-adv-x="614" d="M468 699T410 699Q328 699 271 644T186 503T157 329Q157 207 199 129T328 51Q365 51 403 61T461 94Q474 125 495 199H560L539 46Q434 -8 310 -8Q216 -8 155 38T67 157T39 317Q39 447 90 545T229 697T425
751Q481 751 516 746T572 735T598 728L617 722L587 539H514L506 679Q468 699 410 699Z" />
<glyph unicode="D" glyph-name="D" horiz-adv-x="709" d="M260 743T306 747Q362 751 391 751Q545 751 615 670T686 445Q686 314 639 211T501 49T285 -8Q279 -8 262 -7T237 -4Q193 0 137 0H2L6 41L81 53L163 688L95 699L100 743H238Q260 743 306 747ZM215 52T248
48T301 44Q391 47 451 103T541 248T571 433Q571 575 525 637T372 699Q331 699 271 689L190 57Q215 52 248 48Z" />
<glyph unicode="E" glyph-name="E" horiz-adv-x="611" d="M582 743L574 582H511L494 687L273 695L236 417L467 427L458 347L230 357L191 56L466 68L521 189L583 179L543 0H2L6 41L82 53L162 688L94 699L99 743H582Z" />
<glyph unicode="F" glyph-name="F" horiz-adv-x="575" d="M598 743L585 579H516L505 685L272 694L236 413L479 420L470 341L230 352L190 54L314 41L310 0H6L10 41L82 53L162 688L94 699L100 743H598Z" />
<glyph unicode="G" glyph-name="G" horiz-adv-x="668" d="M550 41T504 28Q446 11 401 2T302 -8Q213 -8 155 38T69 157T42 316Q42 446 90 544T225 697T420 751Q489 751 530 744T621 724L644 718L615 567H542L539 671Q518 684 490 691T415 699Q328 699 270 645T185
504T157 321Q157 206 199 127T327 48Q370 48 410 57T474 84L503 296L380 304L386 358H622L578 44Q550 41 504 28Z" />
<glyph unicode="H" glyph-name="H" horiz-adv-x="765" d="M356 743L351 699L273 688L237 408H560L595 688L518 699L523 743H781L775 699L704 688L624 53L700 41L696 0H427L431 41L515 53L553 350H229L191 53L270 41L267 0H7L11 41L82 53L163 688L96 699L101 743H356Z" />
<glyph unicode="I" glyph-name="I" horiz-adv-x="351" d="M361 743L357 699L279 688L198 53L278 41L275 0H11L16 41L89 53L170 688L102 699L107 743H361Z" />
<glyph unicode="J" glyph-name="J" horiz-adv-x="346" d="M248 389T228 229T199 37Q171 -52 100 -102T-63 -168L-82 -127Q-12 -108 33 -62T91 43Q112 143 128 277T167 616L175 688L97 699L103 743H366L362 699L282 688Q248 389 228 229Z" />
<glyph unicode="K" glyph-name="K" horiz-adv-x="683" d="M410 379T447 310Q482 247 504 210Q513 194 522 180Q558 117 575 92T606 58L669 42L664 0H512Q497 1 478 32T426 126L415 148Q392 191 367 244Q331 318 316 345L214 238L190 53L270 41L266 0H4L9 41L82
53L162 688L95 699L100 743H355L350 699L272 688L225 326L555 688L488 699L493 743H709L703 699L643 688L386 418Q410 379 447 310Z" />
<glyph unicode="L" glyph-name="L" horiz-adv-x="588" d="M363 743L359 699L272 688L190 52L424 58L500 246L560 236L511 0H7L11 41L82 53L162 688L95 699L100 743H363Z" />
<glyph unicode="M" glyph-name="M" horiz-adv-x="941" d="M535 339T609 503Q621 531 657 610T714 743H939L934 699L846 688L827 53L911 41L908 0H624L628 41L719 53L742 492L755 694L680 516L450 -2L393 -9L313 504L282 693L241 499L135 53L236 41L233 0H-31L-26
41L56 53L217 688L125 699L131 743H376L449 264L462 165L504 263Q535 339 609 503Z" />
<glyph unicode="N" glyph-name="N" horiz-adv-x="745" d="M288 743L514 211L553 100L624 688L544 699L549 743H772L768 699L698 688L600 0H491L262 535L224 651L158 53L244 41L241 0H6L10 41L79 53L166 688L91 699L98 743H288Z" />
<glyph unicode="O" glyph-name="O" horiz-adv-x="689" d="M489 753T547 710T632 595T660 432Q660 310 617 210T494 50T306 -10Q221 -10 163 31T76 145T47 310Q47 433 91 534T216 694T403 753Q489 753 547 710ZM324 700T272 650T191 513T162 321Q162 198 201 120T318
42Q385 42 436 91T516 228T544 424Q544 552 505 626T390 700Q324 700 272 650Z" />
<glyph unicode="P" glyph-name="P" horiz-adv-x="618" d="M255 743T305 747Q353 751 378 751Q502 751 561 701T620 550Q620 459 579 394T465 295T302 261Q241 261 217 264L192 53L298 41L295 0H6L10 41L81 53L163 688L95 699L100 743H226Q255 743 305 747ZM255
314T306 314Q404 315 455 377T506 556Q506 628 472 663T365 699Q319 699 273 691L223 320Q255 314 306 314Z" />
<glyph unicode="Q" glyph-name="Q" horiz-adv-x="691" d="M600 -161T558 -175T467 -189Q388 -189 340 -153T292 -47Q292 -28 296 -9Q174 -5 110 82T46 311Q46 434 90 535T215 694T402 753Q488 753 546 710T631 596T659 435Q659 322 623 227T517 70T356 -5Q356
-61 394 -80T500 -99Q526 -99 562 -93T621 -77L622 -143Q600 -161 558 -175ZM323 700T271 650T190 514T161 322Q161 198 200 120T317 42Q384 42 435 91T514 227T543 420Q543 550 505 625T389 700Q323 700 271 650Z" />
<glyph unicode="R" glyph-name="R" horiz-adv-x="670" d="M253 743T297 747Q343 751 374 751Q504 751 561 708T618 575Q618 490 569 427T434 339Q455 320 479 275T531 170L544 142Q565 95 576 77T602 52T647 44L644 0H512Q498 0 483 25T444 111Q402 215 376 268T327
326H220L188 53L280 41L277 0H11L15 41L82 53L162 688L95 699L100 743H229Q253 743 297 747ZM251 379T282 379T334 379Q413 382 459 434T506 570Q506 637 470 668T352 699Q336 699 313 697T269 693L228 380Q251 379 282 379Z" />
<glyph unicode="S" glyph-name="S" horiz-adv-x="542" d="M395 701T330 701Q273 701 234 673T194 592Q194 536 229 499T335 417Q384 386 416 359T471 295T493 209Q493 145 461 95T368 17T229 -11Q162 -11 101 4T19 34L42 177H107L113 72Q132 58 163 50T229 41Q297
41 342 74T388 168Q388 220 356 255T259 330Q209 362 174 391T116 461T92 551Q92 612 124 658T213 728T338 753Q405 753 451 741T522 713L499 579H440L431 675Q395 701 330 701Z" />
<glyph unicode="T" glyph-name="T" horiz-adv-x="637" d="M675 743L641 501L583 500L585 685L424 695L340 53L468 42L464 0H107L110 42L231 53L314 695L155 685L99 501H39L79 743H675Z" />
<glyph unicode="U" glyph-name="U" horiz-adv-x="688" d="M587 137T515 64T310 -10Q195 -10 136 48T76 208Q74 246 79 290L131 688L63 699L67 743H329L324 699L241 688L190 299Q183 244 184 205Q185 127 221 84T328 40Q419 40 468 105T534 306L585 688L517 699L521
743H728L722 699L659 688L609 306Q587 137 515 64Z" />
<glyph unicode="V" glyph-name="V" horiz-adv-x="597" d="M287 743L283 699L197 688L262 230L277 92L331 230L536 688L458 699L462 743H681L675 699L612 688L293 -5L199 -8L83 688L15 699L20 743H287Z" />
<glyph unicode="W" glyph-name="W" horiz-adv-x="904" d="M270 743L267 699L185 688L242 225L259 95L299 207L463 618L455 688L384 699L388 743H653L646 699L564 688L610 225L618 95L664 214L865 687L777 699L782 743H1018L1012 699L941 688L633 -5H530L479 495L278
-5H176L76 687L7 699L12 743H270Z" />
<glyph unicode="X" glyph-name="X" horiz-adv-x="647" d="M339 743L335 699L256 688L358 438L530 688L453 699L457 743H693L690 699L620 688L385 382L549 53L623 41L620 0H335L339 41L420 53L307 312L126 53L209 41L205 0H-33L-28 41L34 53L280 371L131 687L63
699L67 743H339Z" />
<glyph unicode="Y" glyph-name="Y" horiz-adv-x="595" d="M299 743L293 699L205 688L310 416L333 347L369 411L536 688L458 699L463 743H681L676 699L618 688L362 289L332 53L444 41L440 0H108L112 41L225 53L255 289L82 688L22 699L26 743H299Z" />
<glyph unicode="Z" glyph-name="Z" horiz-adv-x="589" d="M594 743L605 706L185 127L120 51L433 61L504 203L563 186L517 0H5L-8 39L407 608L485 692L200 687L148 557L89 566L118 743H594Z" />
<glyph unicode="[" glyph-name="bracketleft" horiz-adv-x="421" d="M125 -97T104 -84T82 -37Q82 -6 83 11Q94 120 141 427Q178 683 186 744Q193 803 219 827T296 851Q330 851 376 842T429 831L422 787H283L171 -32L312 -33L307 -77Q231 -97 167 -97Q125 -97 104 -84Z" />
<glyph unicode="\" glyph-name="backslash" horiz-adv-x="417" d="M46 782H128L410 -177H328L46 782Z" />
<glyph unicode="]" glyph-name="bracketright" horiz-adv-x="421" d="M315 857T336 844T358 797Q358 766 357 749Q346 640 299 333Q262 77 254 16Q247 -43 221 -67T144 -91Q110 -91 64 -82T11 -71L18 -27H157L269 792L128 793L133 837Q209 857 273 857Q315 857 336 844Z" />
<glyph unicode="^" glyph-name="asciicircum" horiz-adv-x="666" d="M374 748L575 202H492L332 624L172 202H90L289 748H374Z" />
<glyph unicode="_" glyph-name="underscore" horiz-adv-x="652" d="M608 -165H-65L-56 -101H616L608 -165Z" />
<glyph unicode="`" glyph-name="grave" horiz-adv-x="264" d="M164 631T101 688T19 779L90 847L236 638L201 610Q164 631 101 688Z" />
<glyph unicode="a" glyph-name="a" horiz-adv-x="580" d="M459 90T459 83Q459 68 464 61T479 54Q495 54 523 79L537 53Q526 35 496 13T427 -10Q396 -10 378 5T361 54L365 83Q333 44 291 17T199 -10Q118 -10 78 47T38 199Q38 285 76 370T187 512T358 568Q381 568
410 563T463 550L524 567L460 94Q459 90 459 83ZM385 513T347 513Q283 513 238 466T171 349T148 207Q148 135 169 96T233 56Q268 56 303 82T364 143L411 497Q385 513 347 513Z" />
<glyph unicode="b" glyph-name="b" horiz-adv-x="579" d="M245 523T285 545T373 568Q455 568 497 511T540 356Q540 268 501 184T390 45T222 -10Q193 -10 160 -3T103 14L52 -5L149 735L100 753L109 789L237 806L259 793L219 490Q245 523 285 545ZM186 45T234 45Q298
45 342 92T409 210T431 353Q431 421 408 461T340 501Q300 501 265 476T209 419L162 63Q186 45 234 45Z" />
<glyph unicode="c" glyph-name="c" horiz-adv-x="447" d="M339 503T306 503Q260 503 223 468T165 371T144 229Q144 59 250 59Q292 59 322 74T386 120L407 82Q382 48 332 19T215 -10Q130 -10 82 49T34 216Q34 298 68 379T170 514T330 568Q359 568 391 562T444 546L416
441L396 446Q339 503 306 503Z" />
<glyph unicode="d" glyph-name="d" horiz-adv-x="588" d="M464 85T464 78Q464 54 479 54Q495 54 525 78L539 52Q523 32 494 11T426 -10Q365 -10 364 55V76Q337 40 295 15T201 -10Q119 -10 78 47T37 199Q37 286 74 371T184 512T356 568Q387 568 429 557L455 734L388
752L396 788L545 806L568 793L465 90Q464 85 464 78ZM390 513T344 513Q278 513 234 465T168 346T146 205Q146 135 168 96T233 56Q273 56 309 81T365 138L419 493Q390 513 344 513Z" />
<glyph unicode="e" glyph-name="e" horiz-adv-x="518" d="M426 57T369 23T240 -11Q172 -11 127 19T61 99T40 206Q40 303 79 386T186 519T336 568Q408 568 444 534T481 444Q481 372 425 324T292 251T153 226Q149 155 176 105T264 55Q309 55 351 76T429 135L452
96Q426 57 369 23ZM267 514T233 477T178 385T154 275Q202 277 254 296T342 352T377 436Q377 474 360 494T312 514Q267 514 233 477Z" />
<glyph unicode="f" glyph-name="f" horiz-adv-x="340" d="M158 664T188 711T262 787T357 815Q407 815 438 803L412 729Q381 752 343 751Q269 751 252 624L244 561H362L353 495H235L172 3Q158 -109 107 -180T-26 -252Q-50 -252 -74 -250T-111 -244L-87 -168Q-79
-172 -53 -179T-9 -187Q20 -187 36 -157T60 -69L131 495H65L73 532L142 559L149 606Q158 664 188 711Z" />
<glyph unicode="g" glyph-name="g" horiz-adv-x="573" d="M433 -113T390 -160T289 -229T170 -250Q139 -250 105 -244T54 -231L75 -147Q97 -159 133 -170T204 -182Q267 -182 297 -158T336 -67L354 63Q326 31 288 11T203 -10Q120 -10 79 47T37 199Q37 285 75 370T187
512T358 568Q385 568 415 562T468 546L533 568L443 -38Q433 -113 390 -160ZM391 513T346 513Q280 513 235 465T168 346T146 205Q146 135 169 96T235 56Q273 56 308 79T364 133L417 494Q391 513 346 513Z" />
<glyph unicode="h" glyph-name="h" horiz-adv-x="615" d="M251 492T306 530T420 568Q477 568 507 534T538 422Q538 386 526 322T512 247Q510 231 508 219T503 197Q498 166 493 134T488 82Q488 53 503 53Q514 53 524 59T553 81L566 54Q552 34 521 12T447 -10Q409
-10 393 6T377 53Q377 82 393 166L403 220L407 244Q429 361 429 413Q428 459 415 476T372 493Q332 493 284 453T201 356L155 0H51L145 734L87 752L94 788L236 806L258 793L211 433Q251 492 306 530Z" />
<glyph unicode="i" glyph-name="i" horiz-adv-x="316" d="M181 79Q181 67 185 61T197 54Q208 54 219 60T248 83L261 57Q246 36 215 13T142 -10Q107 -10 89 6T73 53Q78 97 99 242Q127 436 133 485L71 509L78 544L226 567L249 556L182 89L181 79ZM186 673T170 690T153
731Q153 762 174 784T225 806Q252 806 267 790T282 749Q281 717 261 695T209 673Q186 673 170 690Z" />
<glyph unicode="j" glyph-name="j" horiz-adv-x="317" d="M174 -120T116 -187T-30 -255Q-56 -255 -78 -250T-110 -237L-94 -193Q-85 -196 -72 -198T-49 -200Q14 -200 43 -140T86 29L138 489L65 510L73 544L232 567L254 556L188 1Q174 -120 116 -187ZM185 673T169
690T152 731Q152 762 173 784T224 806Q251 806 266 790T281 749Q280 717 260 695T208 673Q185 673 169 690Z" />
<glyph unicode="k" glyph-name="k" horiz-adv-x="536" d="M256 793L150 0H46L143 734L85 752L92 788L234 806L256 793ZM205 302T246 328Q290 354 319 377T375 434Q398 464 402 511Q404 537 422 550T463 564Q485 564 498 549T511 512Q511 481 488 448Q460 410 412
379T291 308L416 107Q429 87 444 75T472 63Q495 63 520 85L537 55Q521 31 489 11T416 -10Q358 -10 330 45L199 298Q205 302 246 328Z" />
<glyph unicode="l" glyph-name="l" horiz-adv-x="301" d="M168 85T168 78Q168 54 184 54Q203 54 235 83L248 57Q234 35 205 13T132 -10Q100 -10 81 5T62 52Q62 58 63 70T66 87L156 734L94 752L103 788L245 806L266 793L169 89Q168 85 168 78Z" />
<glyph unicode="m" glyph-name="m" horiz-adv-x="936" d="M259 495T313 531T423 568Q477 568 506 538T540 442Q577 499 628 533T736 568Q791 568 823 533T855 422Q855 384 837 284L831 247Q826 219 824 209Q818 175 813 139T807 81Q807 54 821 54Q831 54 843 60T873
83L885 57Q872 37 840 14T765 -10Q728 -10 713 7T698 56Q699 88 715 178L722 222Q723 230 727 248Q729 258 737 311T746 408Q746 457 733 475T690 493Q656 493 614 460T538 374Q535 328 524 247L491 0H385L415 220Q435 344 435 412Q434 460 422 476T375 493Q338
493 291 455T210 363L160 0H57L122 482L72 507L80 545L209 568L230 557L219 439Q259 495 313 531Z" />
<glyph unicode="n" glyph-name="n" horiz-adv-x="622" d="M260 496T314 532T425 568Q482 568 512 534T543 423Q543 386 524 283L518 247L513 218Q495 131 494 86V80Q494 54 507 54Q527 54 554 78L567 51Q555 34 523 12T450 -10Q383 -10 383 53Q383 84 402 183L409
220L413 244Q435 361 435 413Q434 459 421 476T376 493Q338 493 291 455T209 360L161 0H58L122 482L72 507L80 545L210 568L231 557L219 439Q260 496 314 532Z" />
<glyph unicode="o" glyph-name="o" horiz-adv-x="574" d="M429 568T482 508T535 337Q535 246 499 166T396 38T245 -11Q146 -11 93 49T40 220Q40 312 76 392T179 520T330 568Q429 568 482 508ZM264 513T227 470T172 360T153 224Q153 42 262 42Q313 42 349 86T403
197T421 333Q421 513 316 513Q264 513 227 470Z" />
<glyph unicode="p" glyph-name="p" horiz-adv-x="576" d="M244 523T283 545T370 568Q453 568 495 511T538 356Q538 268 499 183T388 44T221 -10Q203 -10 151 -1L116 -254H15L116 487L63 510L70 545L205 568L226 557L218 490Q244 523 283 545ZM188 45T233 45Q295
45 339 91T405 209T427 353Q427 422 404 461T338 501Q299 501 265 477T210 421L160 63Q188 45 233 45Z" />
<glyph unicode="q" glyph-name="q" horiz-adv-x="575" d="M427 -163Q427 -174 431 -182T442 -190Q463 -190 493 -159L507 -186Q494 -206 461 -229T385 -253Q350 -253 334 -235T320 -185L353 63Q326 32 287 11T201 -10Q119 -10 78 47T37 199Q37 286 74 371T184
512T356 568Q382 568 412 562T465 546L523 560L428 -154L427 -163ZM385 513T345 513Q280 513 235 466T168 347T146 205Q146 134 169 95T234 56Q272 56 306 79T363 134L412 496Q385 513 345 513Z" />
<glyph unicode="r" glyph-name="r" horiz-adv-x="411" d="M223 459T249 491T313 545T391 567Q415 567 423 560L400 445Q385 456 351 456Q310 456 270 431T208 359L161 0H58L121 481L70 506L78 544L201 567L222 555L215 465L211 426Q223 459 249 491Z" />
<glyph unicode="s" glyph-name="s" horiz-adv-x="426" d="M370 482T340 496T270 510Q225 510 198 491T171 434Q171 402 193 376T258 318Q293 292 315 272T353 221T369 152Q369 100 341 64T266 9T162 -10Q117 -10 72 0T13 22L30 95Q50 79 87 65T164 51Q206 51 236
69T266 128Q266 163 242 188T171 246Q69 317 69 410Q69 457 95 493T168 548T270 568Q306 568 343 562T396 549L379 470Q370 482 340 496Z" />
<glyph unicode="t" glyph-name="t" horiz-adv-x="356" d="M176 130T176 103Q176 79 185 69T219 59Q240 59 268 71T313 96L323 62Q301 37 254 14T157 -10Q116 -10 93 10T69 74Q69 93 76 154L121 492H61L70 533L132 554Q154 578 195 691H251L234 555H362L354 492H226L183
176Q176 130 176 103Z" />
<glyph unicode="u" glyph-name="u" horiz-adv-x="601" d="M188 247Q178 165 178 137Q178 90 194 72T243 54Q279 54 317 79T382 141L438 563H542L478 90L477 79Q477 67 481 61T493 54Q513 54 544 84L557 57Q545 38 512 15T439 -9Q408 -9 392 7T378 52Q378 50 381
86L380 87Q300 -10 200 -10Q143 -10 108 20T72 121Q72 168 91 295L117 481L64 510L71 548L207 567L228 556L194 291L188 247Z" />
<glyph unicode="v" glyph-name="v" horiz-adv-x="521" d="M73 499T55 500Q46 500 39 496T23 484L10 514Q20 529 48 548T112 567Q147 567 163 550T183 500L224 190L237 83L294 158Q341 228 368 292T403 429Q404 446 400 462T395 481Q388 502 388 515Q388 539 401
553T438 567Q470 567 486 541T503 470Q504 403 456 311T332 122L237 -4L163 -10L131 172L78 468Q73 499 55 500Z" />
<glyph unicode="w" glyph-name="w" horiz-adv-x="840" d="M75 485T70 492T56 500Q47 500 41 496T23 484L10 514Q19 528 49 547T113 567Q149 567 164 551T185 500L224 174L234 78L273 181L423 563H518L559 168L567 79L618 154Q656 211 688 287T722 430Q722 447
713 478Q706 501 706 515Q706 538 720 552T758 567Q820 567 822 468Q822 405 771 307T656 122L571 -4L487 -9L465 163L444 361L439 429L418 360L328 163L254 -3L166 -10L134 163L79 468Q75 485 70 492Z" />
<glyph unicode="x" glyph-name="x" horiz-adv-x="499" d="M113 484T105 493T84 502Q71 502 59 496T39 481L22 510Q33 526 65 546T138 567Q172 567 190 554T217 516L264 349L409 563H513L294 281L379 99Q396 58 416 58Q439 58 470 88L487 59Q482 50 464 34T419
4T360 -10Q328 -10 312 3T287 42L232 219L82 0H-24L201 287L120 468Q113 484 105 493Z" />
<glyph unicode="y" glyph-name="y" horiz-adv-x="529" d="M78 486T73 492T59 499Q44 499 23 479L10 508Q21 524 51 545T116 567Q151 567 166 550T187 500L242 123L256 -1L320 125L334 154Q378 245 399 305T420 426Q420 445 415 459T409 475Q399 499 399 516Q399
540 412 553T450 566Q481 566 498 541T516 474Q516 424 500 371T464 277T406 162Q362 71 313 -12T228 -143Q196 -194 152 -221T47 -249Q23 -249 -6 -244T-48 -232L-23 -156Q-12 -165 11 -172T62 -179Q106 -179 151 -145T235 -38H181L82 468Q78 486 73 492Z" />
<glyph unicode="z" glyph-name="z" horiz-adv-x="501" d="M307 472Q189 474 174 473Q145 472 127 446T106 383H70L69 407Q69 456 77 501T106 556Q121 567 152 567Q204 567 305 558Q327 557 370 554T434 551Q464 551 483 566L506 541L242 202L129 85L329 82Q405
82 416 172H452Q451 114 443 64T412 -1Q394 -11 362 -11Q334 -11 203 -2Q99 6 74 6Q45 6 25 -11L-2 16L321 410L383 471L307 472Z" />
<glyph unicode="{" glyph-name="braceleft" horiz-adv-x="502" d="M146 20T162 127T185 283Q186 302 157 318Q124 340 74 352L82 406Q143 421 178 437Q211 452 214 472L255 743Q264 804 290 826T366 849Q393 849 436 841T494 829Q493 824 491 811T488 787H353L305
474Q299 436 255 412Q237 404 214 394T178 379Q236 350 252 335Q280 311 276 281L229 -32H363L358 -76Q315 -87 287 -91T223 -96Q181 -96 160 -83T139 -35Q146 20 162 127Z" />
<glyph unicode="|" glyph-name="bar" horiz-adv-x="417" d="M258 869V-91H179V869H258Z" />
<glyph unicode="}" glyph-name="braceright" horiz-adv-x="502" d="M369 735T353 628T330 472Q329 453 358 437Q391 415 441 403L433 349Q372 334 337 318Q304 303 301 283L260 12Q251 -49 225 -71T149 -94Q122 -94 79 -86T21 -74Q22 -69 24 -56T27 -32H162L210
281Q216 319 260 343Q278 351 301 361T337 376Q279 405 263 420Q235 444 239 474L286 787H152L157 831Q200 842 228 846T292 851Q334 851 355 838T376 790Q369 735 353 628Z" />
<glyph unicode="~" glyph-name="asciitilde" horiz-adv-x="555" d="M75 440T97 463T151 502T218 518Q246 518 268 507T315 473Q338 454 353 445T388 436Q448 436 487 495L523 455Q516 430 494 407T441 368T374 352Q345 352 323 364T274 399Q251 418 236 427T203
436Q172 436 146 421T100 378L68 418Q75 440 97 463Z" />
<glyph unicode="&#xa0;" glyph-name="uni00A0" horiz-adv-x="237" />
<glyph unicode="&#xa1;" glyph-name="exclamdown" horiz-adv-x="340" d="M283 576T262 553T212 530Q185 530 172 545T158 585Q158 621 180 643T233 665Q255 665 269 651T283 611Q283 576 262 553ZM43 -212L159 411H228L160 -212H43Z" />
<glyph unicode="&#xa2;" glyph-name="cent" horiz-adv-x="516" d="M207 -5Q140 8 104 65T67 217Q67 290 95 364T178 492T309 562L332 683H395L373 567Q398 566 432 558T488 539L460 434L431 435Q417 465 394 484T340 503Q294 503 257 468T198 370T177 226Q177
59 283 59Q325 59 355 74T419 120L440 82Q416 51 372 24T268 -9L244 -118H182L207 -5Z" />
<glyph unicode="&#xa3;" glyph-name="sterling" horiz-adv-x="690" d="M340 -11T290 2T176 39L148 50Q131 30 96 11T34 -9Q17 -9 7 -1T-4 26Q-4 42 12 59T56 88T114 100Q139 127 157 227Q167 274 181 362H89L97 426H191L202 489Q214 560 252 621T348 719T475 756Q526
756 557 748T612 717L565 635Q554 653 523 673T448 693Q400 693 363 650T310 506L296 426H450L443 362H284Q282 350 280 342Q279 332 277 323T274 303Q260 229 238 181T184 86Q208 81 230 74Q275 62 309 55T380 48Q462 48 501 75T540 157Q540 183 526 208T495 247L564
310Q598 285 620 251T642 172Q642 94 585 42T402 -11Q340 -11 290 2Z" />
<glyph unicode="&#xa4;" glyph-name="currency" horiz-adv-x="748" d="M212 211Q171 266 171 337Q171 404 211 462L115 558L167 611L264 513Q322 551 386 551Q455 551 512 510L608 605L660 552L564 456Q601 401 601 337Q601 271 562 214L659 118L606 64L509 162Q454
123 386 123Q322 123 266 159L169 62L117 115L212 211ZM248 299T266 266T316 214T386 195Q424 195 455 214T505 266T524 337Q524 375 506 407T456 459T386 478Q348 478 317 459T267 408T248 337Q248 299 266 266Z" />
<glyph unicode="&#xa5;" glyph-name="yen" horiz-adv-x="717" d="M304 413L154 691L90 700L95 745H368L362 700L261 691L366 475L388 400L433 477L584 693L510 700L516 745H752L746 701L684 688L468 413H624L618 353H426L413 244H604L599 185H406L390 53L517 41L513
0H168L172 41L296 53L311 185H115L122 244H318L331 353H134L141 413H304Z" />
<glyph unicode="&#xa6;" glyph-name="brokenbar" horiz-adv-x="417" d="M258 869V438H180V869H258ZM258 341V-91H180V341H258Z" />
<glyph unicode="&#xa7;" glyph-name="section" horiz-adv-x="583" d="M110 113L120 5Q139 -17 176 -27T254 -37Q309 -36 356 -8T408 75Q411 103 393 124T346 160T266 196Q204 222 166 243T101 297T74 377Q74 420 95 461T151 534Q114 573 114 622Q114 687 154 731T253
796T368 817Q429 817 482 806T557 780L536 628H479L464 735Q452 749 421 757T355 765Q302 764 259 742T210 665Q207 633 226 610T274 571T356 533Q416 508 451 488T512 437T537 361Q537 269 466 194Q502 156 502 104Q502 44 463 0T363 -68T242 -91Q184 -91 117
-78T29 -51L52 113H110ZM454 342T434 365T384 404T302 444Q273 457 243 471T191 500Q157 461 157 416Q157 386 177 364T228 325T311 286Q390 253 425 229Q454 271 454 312Q454 342 434 365Z" />
<glyph unicode="&#xa8;" glyph-name="dieresis" horiz-adv-x="395" d="M61 673T46 691T31 733Q32 764 50 785T97 806Q122 806 137 790T152 751Q152 718 134 696T83 673Q61 673 46 691ZM273 673T258 691T242 733Q243 764 261 785T309 806Q334 806 349 790T364 749Q363
716 345 695T295 673Q273 673 258 691Z" />
<glyph unicode="&#xa9;" glyph-name="copyright" horiz-adv-x="1049" d="M130 607T186 704T340 858T554 915Q671 915 768 859T921 705T978 490Q978 373 922 275T768 119T554 62Q438 62 341 119T187 274T130 490Q130 607 186 704ZM192 389T240 303T371 167T554
116Q654 116 737 166T868 303T916 490Q916 591 868 676T737 812T554 862Q453 862 370 812T240 676T192 490Q192 389 240 303ZM453 252T397 316T340 486Q340 554 372 610T460 698T587 731Q623 731 661 723T713 702L711 587H655L635 652Q623 660 606 664T557 669Q498
669 465 624T432 504Q432 424 475 376T588 328Q618 328 645 339T694 370L719 326Q696 297 652 275T558 252Q453 252 397 316Z" />
<glyph unicode="&#xaa;" glyph-name="ordfeminine" horiz-adv-x="417" d="M362 437T362 427Q362 406 372 406Q381 406 403 421L415 400Q412 396 396 387T360 370T322 362Q301 362 288 375T275 411Q275 416 277 428Q228 362 147 362Q92 362 61 407T30 523Q30 591
66 655T164 760T297 801Q337 801 381 787L432 803L363 443Q362 437 362 427ZM322 744T310 750T287 756Q239 756 202 723T144 638T124 530Q124 478 140 447T191 415Q229 415 278 462L331 735Q322 744 310 750Z" />
<glyph unicode="&#xab;" glyph-name="guillemotleft" horiz-adv-x="682" d="M383 524L181 296L303 81L253 49L62 269L70 334L334 554L383 524ZM651 524L445 296L572 81L521 49L326 269L334 334L602 554L651 524Z" />
<glyph unicode="&#xac;" glyph-name="logicalnot" horiz-adv-x="669" d="M584 415L554 157H474L497 352H103L110 415H584Z" />
<glyph unicode="&#xad;" glyph-name="uni00AD" horiz-adv-x="628" d="M530 358L518 284H108L120 358H530Z" />
<glyph unicode="&#xae;" glyph-name="registered" horiz-adv-x="1049" d="M130 607T186 704T340 858T554 915Q671 915 768 859T921 705T978 490Q978 373 922 275T768 119T554 62Q438 62 341 119T187 274T130 490Q130 607 186 704ZM192 389T240 303T371 167T554
116Q654 116 737 166T868 303T916 490Q916 591 868 676T737 812T554 862Q453 862 370 812T240 676T192 490Q192 389 240 303ZM402 666L359 677V724H442Q467 723 506 725L564 726Q654 726 699 693T745 602Q745 548 718 510T639 461Q672 447 687 425T718 365Q731
333 742 318T779 301V254H696Q669 254 657 274T631 337Q619 381 605 406T562 442L490 443V306L540 296V254H359V296L402 308V666ZM506 497T565 497Q599 497 623 524T647 588Q647 634 624 654T551 674Q513 674 490 669V500Q506 497 565 497Z" />
<glyph unicode="&#xaf;" glyph-name="overscore" horiz-adv-x="300" d="M285 768L276 694H16L25 768H285Z" />
<glyph unicode="&#xb0;" glyph-name="degree" horiz-adv-x="422" d="M211 470T175 491T117 549T96 628Q96 674 118 711T178 771T265 793Q310 793 346 772T404 715T425 636Q425 590 403 552T342 492T255 470Q211 470 175 491ZM303 529T332 559T361 636Q361 677
333 705T263 734Q218 734 189 705T160 630Q160 588 188 559T258 529Q303 529 332 559Z" />
<glyph unicode="&#xb1;" glyph-name="plusminus" horiz-adv-x="662" d="M289 258L302 343L227 340H122L129 414H238L312 410L320 494L332 607H414L401 494L387 410L448 414H568L561 340H438L377 343Q377 332 376 322T374 302Q373 294 370 258L356 140H275L289
258ZM95 78H516L508 10H88L95 78Z" />
<glyph unicode="&#xb2;" glyph-name="uni00B2" horiz-adv-x="508" d="M180 449T278 532T377 697Q377 732 355 752T291 773Q255 773 221 759T165 722L137 756Q160 786 210 810T316 835Q390 835 430 803T471 719Q471 640 378 552T166 401L409 418L444 486L487 477L455
343H90L75 388Q180 449 278 532Z" />
<glyph unicode="&#xb3;" glyph-name="uni00B3" horiz-adv-x="497" d="M205 335T168 342T102 364L107 414Q133 403 167 397T230 390Q304 390 346 418T388 496Q388 527 364 549T300 572Q294 572 290 571Q282 568 257 560T221 549L212 599Q248 606 286 625Q371 665
371 723Q371 748 354 762T294 777Q228 777 166 728L143 770Q176 798 225 816T329 835Q392 835 428 809T464 742Q464 699 436 664T339 603Q345 604 357 604Q416 604 449 574T482 500Q482 454 452 416T366 357T238 335Q205 335 168 342Z" />
<glyph unicode="&#xb4;" glyph-name="acute" horiz-adv-x="245" d="M232 873L299 807Q289 790 253 754T176 683T106 634L74 665L232 873Z" />
<glyph unicode="&#xb5;" glyph-name="uni00B5" horiz-adv-x="666" d="M47 -182L99 175Q109 245 115 280Q132 377 141 462Q143 499 125 499Q111 499 89 480L76 507Q90 526 118 545T186 564Q254 564 249 501Q246 454 237 398T227 333Q223 305 220 291Q214 258 210
222T205 154Q205 58 281 58Q343 58 410 132L469 560H572L510 99Q508 83 508 78Q508 54 524 54Q541 54 565 76L579 49Q567 32 537 12T471 -9Q442 -9 428 2T413 44Q413 55 414 62Q383 31 346 11T258 -10Q228 -9 204 1T169 28L138 -182H47Z" />
<glyph unicode="&#xb6;" glyph-name="paragraph" horiz-adv-x="674" d="M115 37L209 50L248 400Q196 401 156 427T94 497T72 596Q72 706 142 770T359 835Q415 835 470 830Q524 826 556 826H685L681 783L598 768Q586 673 554 384L515 50L592 37L588 0H413L500 767L388
768L296 0H112L115 37Z" />
<glyph unicode="&#xb7;" glyph-name="middot" horiz-adv-x="101" d="M35 344T20 359T5 401Q5 436 26 459T76 482Q103 482 118 466T133 426Q133 388 111 366T57 344Q35 344 20 359Z" />
<glyph unicode="&#xb8;" glyph-name="cedilla" horiz-adv-x="234" d="M187 12Q196 -2 201 -26T207 -78Q207 -150 170 -190T68 -230Q49 -230 27 -226T-3 -216L8 -152Q24 -160 53 -160Q98 -160 121 -131T144 -50Q144 -16 136 12L161 14L187 12Z" />
<glyph unicode="&#xb9;" glyph-name="uni00B9" horiz-adv-x="462" d="M231 378L273 709Q250 698 210 689T135 674L130 723Q177 735 237 759T330 811H331L374 803L321 378L442 367L436 320H103L108 368L231 378Z" />
<glyph unicode="&#xba;" glyph-name="ordmasculine" horiz-adv-x="419" d="M363 801T406 752T450 621Q450 540 418 481T333 392T222 362Q148 362 102 412T56 545Q56 623 89 681T175 770T283 801Q363 801 406 752ZM235 756T206 727T161 651T146 556Q146 492 170
451T230 410Q295 410 326 468T357 614Q357 677 336 716T276 756Q235 756 206 727Z" />
<glyph unicode="&#xbb;" glyph-name="guillemotright" horiz-adv-x="668" d="M357 324L349 263L84 49L36 81L238 301L109 524L165 554L357 324ZM613 324L605 263L345 49L296 81L495 301L369 524L425 554L613 324Z" />
<glyph unicode="&#xbc;" glyph-name="onequarter" horiz-adv-x="1077" d="M191 316L232 647Q208 636 170 627T96 612L91 661Q137 673 196 697T290 749H291L333 741L281 316L403 305L397 258H63L69 306L191 316ZM757 747L384 0H310L683 747H757ZM863 525H888L939
485L720 197L682 151L876 161L891 281L970 289L953 165L1039 170L1032 99H944L932 0H855L867 99H616L598 145L863 525Z" />
<glyph unicode="&#xbd;" glyph-name="onehalf" horiz-adv-x="1105" d="M191 316L232 647Q208 636 170 627T96 612L91 661Q137 673 196 697T290 749H291L333 741L281 316L403 305L397 258H63L69 306L191 316ZM757 747L384 0H310L683 747H757ZM729 106T827 189T926
354Q926 389 904 409T840 430Q804 430 770 416T714 379L686 413Q709 443 759 467T865 492Q939 492 979 460T1020 376Q1020 297 927 209T715 58L958 75L993 143L1036 134L1004 0H639L624 45Q729 106 827 189Z" />
<glyph unicode="&#xbe;" glyph-name="threequarters" horiz-adv-x="1131" d="M193 250T156 257T90 279L95 329Q121 318 155 312T218 305Q292 305 334 333T376 411Q376 442 352 464T288 487Q282 487 278 486Q270 483 245 475T209 464L200 514Q236 521 274 540Q359
580 359 638Q359 663 342 677T282 692Q216 692 154 643L131 685Q164 713 213 731T317 750Q380 750 416 724T452 657Q452 614 424 579T327 518Q333 519 345 519Q404 519 437 489T470 415Q470 369 440 331T354 272T226 250Q193 250 156 257ZM811 747L438 0H364L737
747H811ZM917 525H942L993 485L774 197L736 151L930 161L945 281L1024 289L1007 165L1093 170L1086 99H998L986 0H909L921 99H670L652 145L917 525Z" />
<glyph unicode="&#xbf;" glyph-name="questiondown" horiz-adv-x="499" d="M385 443T393 408T401 341Q401 310 382 286T335 243T255 196Q208 173 179 153T130 104Q124 93 121 76T118 42Q118 -31 164 -73T292 -116Q321 -116 350 -111T398 -97L383 -167Q371 -178
334 -188T259 -199Q134 -199 83 -140T32 8Q32 78 66 128Q91 168 129 196T220 253Q267 278 291 299T317 352Q318 376 314 401T305 443L367 461L374 460Q385 443 393 408ZM381 609T360 587T309 564Q282 564 269 579T255 619Q255 655 278 677T331 699Q353 699 367
685T381 645Q381 609 360 587Z" />
<glyph unicode="&#xc0;" glyph-name="Agrave" horiz-adv-x="657" d="M451 744L577 54L657 41L655 0H376L378 41L464 53L437 217H167L92 53L183 41L179 0H-66L-62 41L6 53L342 744H451ZM193 274H429L378 594L372 665L193 274ZM379 808T330 848T261 925L323 977L457
815L419 789Q379 808 330 848Z" />
<glyph unicode="&#xc1;" glyph-name="Aacute" horiz-adv-x="657" d="M451 744L577 54L657 41L655 0H376L378 41L464 53L437 217H167L92 53L183 41L179 0H-66L-62 41L6 53L342 744H451ZM193 274H429L378 594L372 665L193 274ZM494 983L556 928Q534 897 479 860T385
807L344 834L494 983Z" />
<glyph unicode="&#xc2;" glyph-name="Acircumflex" horiz-adv-x="657" d="M451 744L577 54L657 41L655 0H376L378 41L464 53L437 217H167L92 53L183 41L179 0H-66L-62 41L6 53L342 744H451ZM193 274H429L378 594L372 665L193 274ZM389 979H463L569 814L531 789L420
906L258 790L224 815L389 979Z" />
<glyph unicode="&#xc3;" glyph-name="Atilde" horiz-adv-x="657" d="M451 744L577 54L657 41L655 0H376L378 41L464 53L437 217H167L92 53L183 41L179 0H-66L-62 41L6 53L342 744H451ZM193 274H429L378 594L372 665L193 274ZM251 916T281 939T352 963Q376 963
393 953T431 923Q450 906 462 899T490 891Q515 891 533 905T566 940L597 903Q584 871 554 845T486 819Q459 819 442 829T402 859Q383 876 370 884T339 892Q316 892 300 880T266 846L237 882Q251 916 281 939Z" />
<glyph unicode="&#xc4;" glyph-name="Adieresis" horiz-adv-x="657" d="M451 744L577 54L657 41L655 0H376L378 41L464 53L437 217H167L92 53L183 41L179 0H-66L-62 41L6 53L342 744H451ZM193 274H429L378 594L372 665L193 274ZM280 833T266 848T251 887Q251 917
269 937T315 958Q341 958 355 943T369 904Q369 873 350 853T301 833Q280 833 266 848ZM498 833T484 849T469 889Q469 919 488 938T534 958Q558 958 572 944T587 906Q587 874 569 854T520 833Q498 833 484 849Z" />
<glyph unicode="&#xc5;" glyph-name="Aring" horiz-adv-x="657" d="M299 749T277 776T254 843Q254 888 281 918T348 963T430 978Q491 978 529 949T568 872Q568 820 535 786T452 740L577 54L657 41L655 0H376L378 41L464 53L437 217H167L92 53L183 41L179 0H-66L-62
41L6 53L340 739Q299 749 277 776ZM383 934T352 912T320 851Q320 819 343 798T402 777Q443 777 472 798T501 865Q501 895 478 914T422 934Q383 934 352 912ZM193 274H429L378 594L372 665L193 274Z" />
<glyph unicode="&#xc6;" glyph-name="AE" horiz-adv-x="922" d="M337 41L406 53L428 229H186L96 53L200 41L197 0H-87L-82 41L-2 53L348 687L200 697L206 743H896L887 587H822L806 687L596 695L559 413L778 427L769 345L553 354L515 53L781 65L832 184L895 173L860
0H332L337 41ZM216 287H434L484 689L424 691L216 287Z" />
<glyph unicode="&#xc7;" glyph-name="Ccedilla" horiz-adv-x="614" d="M37 441T87 541T226 696T425 751Q481 751 516 746T572 735T598 728L617 722L587 539H514L506 679Q468 699 410 699Q328 699 271 644T186 503T157 329Q157 207 199 129T328 51Q365 51 403 61T461
94Q474 125 495 199H560L539 46Q451 1 348 -7Q359 -40 359 -80Q359 -152 322 -190T220 -229Q200 -229 181 -225T151 -213L163 -146Q169 -149 182 -151T209 -154Q254 -154 274 -127T295 -46Q295 -29 291 -7Q205 -3 149 42T66 157T39 308Q37 441 87 541Z" />
<glyph unicode="&#xc8;" glyph-name="Egrave" horiz-adv-x="611" d="M582 743L574 582H511L494 687L273 695L236 417L467 427L458 347L230 357L191 56L466 68L521 189L583 179L543 0H2L6 41L82 53L162 688L94 699L99 743H582ZM344 808T295 848T226 925L288 977L422
815L384 789Q344 808 295 848Z" />
<glyph unicode="&#xc9;" glyph-name="Eacute" horiz-adv-x="611" d="M483 983L545 928Q523 897 468 860T374 807L333 834L483 983ZM582 743L574 582H511L494 687L273 695L236 417L467 427L458 347L230 357L191 56L466 68L521 189L583 179L543 0H2L6 41L82 53L162
688L94 699L99 743H582Z" />
<glyph unicode="&#xca;" glyph-name="Ecircumflex" horiz-adv-x="611" d="M582 743L574 582H511L494 687L273 695L236 417L467 427L458 347L230 357L191 56L466 68L521 189L583 179L543 0H2L6 41L82 53L162 688L94 699L99 743H582ZM354 979H428L534 814L496 789L385
906L223 790L189 815L354 979Z" />
<glyph unicode="&#xcb;" glyph-name="Edieresis" horiz-adv-x="611" d="M582 743L574 582H511L494 687L273 695L236 417L467 427L458 347L230 357L191 56L466 68L521 189L583 179L543 0H2L6 41L82 53L162 688L94 699L99 743H582ZM245 833T231 848T216 887Q216
917 234 937T280 958Q306 958 320 943T334 904Q334 873 315 853T266 833Q245 833 231 848ZM463 833T449 849T434 889Q434 919 453 938T499 958Q523 958 537 944T552 906Q552 874 534 854T485 833Q463 833 449 849Z" />
<glyph unicode="&#xcc;" glyph-name="Igrave" horiz-adv-x="351" d="M361 743L357 699L279 688L198 53L278 41L275 0H11L16 41L89 53L170 688L102 699L107 743H361ZM217 808T168 848T99 925L161 977L295 815L257 789Q217 808 168 848Z" />
<glyph unicode="&#xcd;" glyph-name="Iacute" horiz-adv-x="351" d="M361 743L357 699L279 688L198 53L278 41L275 0H11L16 41L89 53L170 688L102 699L107 743H361ZM332 983L394 928Q372 897 317 860T223 807L182 834L332 983Z" />
<glyph unicode="&#xce;" glyph-name="Icircumflex" horiz-adv-x="351" d="M361 743L357 699L279 688L198 53L278 41L275 0H11L16 41L89 53L170 688L102 699L107 743H361ZM227 979H301L407 814L369 789L258 906L96 790L62 815L227 979Z" />
<glyph unicode="&#xcf;" glyph-name="Idieresis" horiz-adv-x="351" d="M361 743L357 699L279 688L198 53L278 41L275 0H11L16 41L89 53L170 688L102 699L107 743H361ZM118 833T104 848T89 887Q89 917 107 937T153 958Q179 958 193 943T207 904Q207 873 188 853T139
833Q118 833 104 848ZM336 833T322 849T307 889Q307 919 326 938T372 958Q396 958 410 944T425 906Q425 874 407 854T358 833Q336 833 322 849Z" />
<glyph unicode="&#xd0;" glyph-name="Eth" horiz-adv-x="713" d="M262 744T308 748Q366 752 395 752Q549 752 619 671T690 446Q690 315 643 212T505 50T288 -7Q282 -6 269 -6T240 -3Q194 1 136 1H6L10 42L85 54L123 352H49L58 415H132L167 689L99 700L104 744H239Q262
744 308 748ZM218 53T251 49T306 45Q395 48 456 105T546 251T575 438Q575 578 528 639T375 700Q333 700 275 690L240 415H426L417 352H232L194 58Q218 53 251 49Z" />
<glyph unicode="&#xd1;" glyph-name="Ntilde" horiz-adv-x="745" d="M288 743L514 211L553 100L624 688L544 699L549 743H772L768 699L698 688L600 0H491L262 535L224 651L158 53L244 41L241 0H6L10 41L79 53L166 688L91 699L98 743H288ZM292 916T322 939T393
963Q417 963 434 953T472 923Q491 906 503 899T531 891Q556 891 574 905T607 940L638 903Q625 871 595 845T527 819Q500 819 483 829T443 859Q424 876 411 884T380 892Q357 892 341 880T307 846L278 882Q292 916 322 939Z" />
<glyph unicode="&#xd2;" glyph-name="Ograve" horiz-adv-x="689" d="M489 753T547 710T632 595T660 432Q660 310 617 210T494 50T306 -10Q221 -10 163 31T76 145T47 310Q47 433 91 534T216 694T403 753Q489 753 547 710ZM324 700T272 650T191 513T162 321Q162
198 201 120T318 42Q385 42 436 91T516 228T544 424Q544 552 505 626T390 700Q324 700 272 650ZM395 808T346 848T277 925L339 977L473 815L435 789Q395 808 346 848Z" />
<glyph unicode="&#xd3;" glyph-name="Oacute" horiz-adv-x="689" d="M512 983L574 928Q552 897 497 860T403 807L362 834L512 983ZM490 753T548 710T633 595T661 432Q661 310 618 210T495 50T307 -10Q222 -10 164 31T77 145T48 310Q48 433 92 534T217 694T404
753Q490 753 548 710ZM325 700T273 650T192 513T163 321Q163 198 202 120T319 42Q386 42 437 91T517 228T545 424Q545 552 506 626T391 700Q325 700 273 650Z" />
<glyph unicode="&#xd4;" glyph-name="Ocircumflex" horiz-adv-x="689" d="M489 753T547 710T632 595T660 432Q660 310 617 210T494 50T306 -10Q221 -10 163 31T76 145T47 310Q47 433 91 534T216 694T403 753Q489 753 547 710ZM324 700T272 650T191 513T162 321Q162
198 201 120T318 42Q385 42 436 91T516 228T544 424Q544 552 505 626T390 700Q324 700 272 650ZM405 979H479L585 814L547 789L436 906L274 790L240 815L405 979Z" />
<glyph unicode="&#xd5;" glyph-name="Otilde" horiz-adv-x="689" d="M489 753T547 710T632 595T660 432Q660 310 617 210T494 50T306 -10Q221 -10 163 31T76 145T47 310Q47 433 91 534T216 694T403 753Q489 753 547 710ZM324 700T272 650T191 513T162 321Q162
198 201 120T318 42Q385 42 436 91T516 228T544 424Q544 552 505 626T390 700Q324 700 272 650ZM267 916T297 939T368 963Q392 963 409 953T447 923Q466 906 478 899T506 891Q531 891 549 905T582 940L613 903Q600 871 570 845T502 819Q475 819 458 829T418 859Q399
876 386 884T355 892Q332 892 316 880T282 846L253 882Q267 916 297 939Z" />
<glyph unicode="&#xd6;" glyph-name="Odieresis" horiz-adv-x="689" d="M489 753T547 710T632 595T660 432Q660 310 617 210T494 50T306 -10Q221 -10 163 31T76 145T47 310Q47 433 91 534T216 694T403 753Q489 753 547 710ZM324 700T272 650T191 513T162 321Q162
198 201 120T318 42Q385 42 436 91T516 228T544 424Q544 552 505 626T390 700Q324 700 272 650ZM296 833T282 848T267 887Q267 917 285 937T331 958Q357 958 371 943T385 904Q385 873 366 853T317 833Q296 833 282 848ZM514 833T500 849T485 889Q485 919 504 938T550
958Q574 958 588 944T603 906Q603 874 585 854T536 833Q514 833 500 849Z" />
<glyph unicode="&#xd7;" glyph-name="multiply" horiz-adv-x="669" d="M343 325L159 152L112 211L302 374L152 537L212 594L353 422L536 595L583 537L395 373L545 210L484 152L343 325Z" />
<glyph unicode="&#xd8;" glyph-name="Oslash" horiz-adv-x="690" d="M612 654T636 586T661 436Q661 314 618 213T495 51T307 -9Q224 -9 167 31L99 -75L62 -53L132 60Q90 103 69 168T48 314Q48 436 92 536T217 695T403 754Q474 754 530 722L594 824L632 803L565
696Q612 654 636 586ZM450 701T391 701Q325 701 273 651T191 512T162 318Q162 216 195 144L486 649Q450 701 391 701ZM255 43T319 43Q385 43 436 92T516 227T544 421Q544 545 506 612L214 103Q255 43 319 43Z" />
<glyph unicode="&#xd9;" glyph-name="Ugrave" horiz-adv-x="688" d="M587 137T515 64T310 -10Q195 -10 136 48T76 208Q74 246 79 290L131 688L63 699L67 743H329L324 699L241 688L190 299Q183 244 184 205Q185 127 221 84T328 40Q419 40 468 105T534 306L585 688L517
699L521 743H728L722 699L659 688L609 306Q587 137 515 64ZM394 808T345 848T276 925L338 977L472 815L434 789Q394 808 345 848Z" />
<glyph unicode="&#xda;" glyph-name="Uacute" horiz-adv-x="688" d="M587 137T515 64T310 -10Q195 -10 136 48T76 208Q74 246 79 290L131 688L63 699L67 743H329L324 699L241 688L190 299Q183 244 184 205Q185 127 221 84T328 40Q419 40 468 105T534 306L585 688L517
699L521 743H728L722 699L659 688L609 306Q587 137 515 64ZM509 983L571 928Q549 897 494 860T400 807L359 834L509 983Z" />
<glyph unicode="&#xdb;" glyph-name="Ucircumflex" horiz-adv-x="688" d="M587 137T515 64T310 -10Q195 -10 136 48T76 208Q74 246 79 290L131 688L63 699L67 743H329L324 699L241 688L190 299Q183 244 184 205Q185 127 221 84T328 40Q419 40 468 105T534 306L585
688L517 699L521 743H728L722 699L659 688L609 306Q587 137 515 64ZM404 979H478L584 814L546 789L435 906L273 790L239 815L404 979Z" />
<glyph unicode="&#xdc;" glyph-name="Udieresis" horiz-adv-x="688" d="M587 137T515 64T310 -10Q195 -10 136 48T76 208Q74 246 79 290L131 688L63 699L67 743H329L324 699L241 688L190 299Q183 244 184 205Q185 127 221 84T328 40Q419 40 468 105T534 306L585
688L517 699L521 743H728L722 699L659 688L609 306Q587 137 515 64ZM295 833T281 848T266 887Q266 917 284 937T330 958Q356 958 370 943T384 904Q384 873 365 853T316 833Q295 833 281 848ZM513 833T499 849T484 889Q484 919 503 938T549 958Q573 958 587 944T602
906Q602 874 584 854T535 833Q513 833 499 849Z" />
<glyph unicode="&#xdd;" glyph-name="Yacute" horiz-adv-x="595" d="M299 743L293 699L205 688L310 416L333 347L369 411L536 688L458 699L463 743H681L676 699L618 688L362 289L332 53L444 41L440 0H108L112 41L225 53L255 289L82 688L22 699L26 743H299ZM477
983L539 928Q517 897 462 860T368 807L327 834L477 983Z" />
<glyph unicode="&#xde;" glyph-name="Thorn" horiz-adv-x="613" d="M319 584T373 584Q491 584 547 537T604 407Q604 336 570 280T466 191T297 158Q236 158 206 162L191 53L274 41L271 0H7L11 41L82 53L163 690L96 701L101 746H356L351 701L273 690L258 577Q319
584 373 584ZM264 211T300 211Q388 211 440 258T492 387Q492 460 457 495T341 531Q320 531 294 529T251 523L212 215Q264 211 300 211Z" />
<glyph unicode="&#xdf;" glyph-name="germandbls" horiz-adv-x="589" d="M112 589T157 659T259 752T385 774Q458 774 506 738T554 636Q554 588 532 557T470 492Q441 466 428 450T415 414Q415 398 427 379T476 313Q479 309 499 282T531 223T543 161Q543 113 516
74T441 14T337 -8Q298 -8 266 0T215 18L225 98Q238 82 270 65T332 48Q380 49 407 69T434 143Q434 196 390 261Q325 348 325 393Q325 423 336 441T373 486Q410 519 429 554T449 630Q449 671 428 699T364 728Q321 728 290 706T235 624T198 457L138 0H33L93 453Q112
589 157 659Z" />
<glyph unicode="&#xe0;" glyph-name="agrave" horiz-adv-x="580" d="M459 90T459 83Q459 68 464 61T479 54Q495 54 523 79L537 53Q526 35 496 13T427 -10Q396 -10 378 5T361 54L365 83Q333 44 291 17T199 -10Q118 -10 78 47T38 199Q38 285 76 370T187 512T358
568Q381 568 410 563T463 550L524 567L460 94Q459 90 459 83ZM385 513T347 513Q283 513 238 466T171 349T148 207Q148 135 169 96T233 56Q268 56 303 82T364 143L411 497Q385 513 347 513ZM354 661T291 718T209 809L281 876L426 668L391 640Q354 661 291 718Z"
/>
<glyph unicode="&#xe1;" glyph-name="aacute" horiz-adv-x="580" d="M459 90T459 83Q459 68 464 61T479 54Q495 54 523 79L537 53Q526 35 496 13T427 -10Q396 -10 378 5T361 54L365 83Q333 44 291 17T199 -10Q118 -10 78 47T38 199Q38 285 76 370T187 512T358
568Q381 568 410 563T463 550L524 567L460 94Q459 90 459 83ZM385 513T347 513Q283 513 238 466T171 349T148 207Q148 135 169 96T233 56Q268 56 303 82T364 143L411 497Q385 513 347 513ZM471 876L539 810Q529 793 493 757T415 686T345 637L313 668L471 876Z"
/>
<glyph unicode="&#xe2;" glyph-name="acircumflex" horiz-adv-x="580" d="M459 90T459 83Q459 68 464 61T479 54Q495 54 523 79L537 53Q526 35 496 13T427 -10Q396 -10 378 5T361 54L365 83Q333 44 291 17T199 -10Q118 -10 78 47T38 199Q38 285 76 370T187 512T358
568Q381 568 410 563T463 550L524 567L460 94Q459 90 459 83ZM385 513T347 513Q283 513 238 466T171 349T148 207Q148 135 169 96T233 56Q268 56 303 82T364 143L411 497Q385 513 347 513ZM411 835L499 739L515 651L425 711L294 683L220 652L297 759L411 835Z"
/>
<glyph unicode="&#xe3;" glyph-name="atilde" horiz-adv-x="580" d="M459 90T459 83Q459 68 464 61T479 54Q495 54 523 79L537 53Q526 35 496 13T427 -10Q396 -10 378 5T361 54L365 83Q333 44 291 17T199 -10Q118 -10 78 47T38 199Q38 285 76 370T187 512T358
568Q381 568 410 563T463 550L524 567L460 94Q459 90 459 83ZM385 513T347 513Q283 513 238 466T171 349T148 207Q148 135 169 96T233 56Q268 56 303 82T364 143L411 497Q385 513 347 513ZM225 737T252 756T312 775Q339 775 356 766T395 739Q410 726 421 720T447
713Q470 713 482 722T503 742T514 757L548 716Q537 683 508 662T440 641Q413 641 396 650T361 676Q345 690 333 696T304 703Q282 703 269 695T239 668L211 707Q225 737 252 756Z" />
<glyph unicode="&#xe4;" glyph-name="adieresis" horiz-adv-x="580" d="M459 90T459 83Q459 68 464 61T479 54Q495 54 523 79L537 53Q526 35 496 13T427 -10Q396 -10 378 5T361 54L365 83Q333 44 291 17T199 -10Q118 -10 78 47T38 199Q38 285 76 370T187 512T358
568Q381 568 410 563T463 550L524 567L460 94Q459 90 459 83ZM385 513T347 513Q283 513 238 466T171 349T148 207Q148 135 169 96T233 56Q268 56 303 82T364 143L411 497Q385 513 347 513ZM246 659T230 676T214 717Q214 748 233 770T281 792Q306 792 321 775T336
734Q335 702 316 681T266 659Q246 659 230 676ZM456 659T441 676T425 717Q425 748 443 770T491 792Q516 792 531 776T546 736Q546 703 527 681T477 659Q456 659 441 676Z" />
<glyph unicode="&#xe5;" glyph-name="aring" horiz-adv-x="580" d="M459 90T459 83Q459 68 464 61T479 54Q495 54 523 79L537 53Q526 35 496 13T427 -10Q396 -10 378 5T361 54L365 83Q333 44 291 17T199 -10Q118 -10 78 47T38 199Q38 285 76 370T187 512T358 568Q381
568 410 563T463 550L524 567L460 94Q459 90 459 83ZM385 513T347 513Q283 513 238 466T171 349T148 207Q148 135 169 96T233 56Q268 56 303 82T364 143L411 497Q385 513 347 513ZM303 649T266 679T229 764Q229 814 255 847T321 895T405 911Q468 911 505 881T542
799Q542 750 518 716T454 666T370 649Q303 649 266 679ZM420 694T449 716T478 788Q478 822 455 844T397 866Q355 866 325 843T295 772Q295 739 318 717T377 694Q420 694 449 716Z" />
<glyph unicode="&#xe6;" glyph-name="ae" horiz-adv-x="849" d="M546 535T587 551T672 567Q742 567 777 533T812 443Q812 372 757 323T625 251T486 226Q481 57 591 57Q637 57 681 77T761 135L783 96Q768 73 737 49T661 7T566 -10Q486 -10 441 30T382 142Q349 81
298 36T187 -10Q110 -10 74 46T38 197Q38 283 78 369T195 511T371 567Q418 567 470 551L522 567L511 505Q546 535 587 551ZM599 514T565 477T512 385T487 275Q535 277 586 296T672 352T707 436Q707 514 644 514Q599 514 565 477ZM395 512T362 512Q295 512 247 465T173
347T148 206Q148 137 165 99T217 61Q260 61 300 101T369 191L417 496Q395 512 362 512Z" />
<glyph unicode="&#xe7;" glyph-name="ccedilla" horiz-adv-x="447" d="M34 298T68 379T170 514T330 568Q359 568 391 562T444 546L416 441L396 446Q339 503 306 503Q260 503 223 468T165 371T144 229Q144 59 250 59Q292 59 322 74T386 120L407 82Q387 55 349 29T261
-6Q274 -43 274 -84Q274 -156 238 -193T137 -230Q117 -230 94 -226T62 -217L72 -152Q78 -155 91 -157T118 -160Q161 -160 184 -133T209 -54Q209 -28 206 -10Q125 -7 80 52T34 216Q34 298 68 379Z" />
<glyph unicode="&#xe8;" glyph-name="egrave" horiz-adv-x="518" d="M426 57T369 23T240 -11Q172 -11 127 19T61 99T40 206Q40 303 79 386T186 519T336 568Q408 568 444 534T481 444Q481 372 425 324T292 251T153 226Q149 155 176 105T264 55Q309 55 351 76T429
135L452 96Q426 57 369 23ZM267 514T233 477T178 385T154 275Q202 277 254 296T342 352T377 436Q377 474 360 494T312 514Q267 514 233 477ZM321 661T258 718T176 809L248 876L393 668L358 640Q321 661 258 718Z" />
<glyph unicode="&#xe9;" glyph-name="eacute" horiz-adv-x="518" d="M426 57T369 23T240 -11Q172 -11 127 19T61 99T40 206Q40 303 79 386T186 519T336 568Q408 568 444 534T481 444Q481 372 425 324T292 251T153 226Q149 155 176 105T264 55Q309 55 351 76T429
135L452 96Q426 57 369 23ZM267 514T233 477T178 385T154 275Q202 277 254 296T342 352T377 436Q377 474 360 494T312 514Q267 514 233 477ZM438 876L506 810Q496 793 460 757T382 686T312 637L280 668L438 876Z" />
<glyph unicode="&#xea;" glyph-name="ecircumflex" horiz-adv-x="518" d="M426 57T369 23T240 -11Q172 -11 127 19T61 99T40 206Q40 303 79 386T186 519T336 568Q408 568 444 534T481 444Q481 372 425 324T292 251T153 226Q149 155 176 105T264 55Q309 55 351
76T429 135L452 96Q426 57 369 23ZM267 514T233 477T178 385T154 275Q202 277 254 296T342 352T377 436Q377 474 360 494T312 514Q267 514 233 477ZM378 835L466 739L482 651L392 711L261 683L187 652L264 759L378 835Z" />
<glyph unicode="&#xeb;" glyph-name="edieresis" horiz-adv-x="518" d="M426 57T369 23T240 -11Q172 -11 127 19T61 99T40 206Q40 303 79 386T186 519T336 568Q408 568 444 534T481 444Q481 372 425 324T292 251T153 226Q149 155 176 105T264 55Q309 55 351 76T429
135L452 96Q426 57 369 23ZM267 514T233 477T178 385T154 275Q202 277 254 296T342 352T377 436Q377 474 360 494T312 514Q267 514 233 477ZM213 659T197 676T181 717Q181 748 200 770T248 792Q273 792 288 775T303 734Q302 702 283 681T233 659Q213 659 197 676ZM423
659T408 676T392 717Q392 748 410 770T458 792Q483 792 498 776T513 736Q513 703 494 681T444 659Q423 659 408 676Z" />
<glyph unicode="&#xec;" glyph-name="igrave" horiz-adv-x="316" d="M181 79Q181 67 185 61T197 54Q208 54 219 60T248 83L261 57Q246 36 215 13T142 -10Q107 -10 89 6T73 53Q78 97 99 242Q127 436 133 485L71 509L78 544L226 567L249 556L182 89L181 79ZM186
662T123 719T41 810L113 877L258 669L223 641Q186 662 123 719Z" />
<glyph unicode="&#xed;" glyph-name="iacute" horiz-adv-x="316" d="M181 79Q181 67 185 61T197 54Q208 54 219 60T248 83L261 57Q246 36 215 13T142 -10Q107 -10 89 6T73 53Q78 97 99 242Q127 436 133 485L71 509L78 544L226 567L249 556L182 89L181 79ZM303
877L371 811Q361 794 325 758T247 687T177 638L145 669L303 877Z" />
<glyph unicode="&#xee;" glyph-name="icircumflex" horiz-adv-x="316" d="M181 79Q181 67 185 61T197 54Q208 54 219 60T248 83L261 57Q246 36 215 13T142 -10Q107 -10 89 6T73 53Q78 97 99 242Q127 436 133 485L71 509L78 544L226 567L249 556L182 89L181 79ZM243
836L331 740L347 652L257 712L126 684L52 653L129 760L243 836Z" />
<glyph unicode="&#xef;" glyph-name="idieresis" horiz-adv-x="316" d="M181 79Q181 67 185 61T197 54Q208 54 219 60T248 83L261 57Q246 36 215 13T142 -10Q107 -10 89 6T73 53Q78 97 99 242Q127 436 133 485L71 509L78 544L226 567L249 556L182 89L181 79ZM78
660T62 677T46 718Q46 749 65 771T113 793Q138 793 153 776T168 735Q167 703 148 682T98 660Q78 660 62 677ZM288 660T273 677T257 718Q257 749 275 771T323 793Q348 793 363 777T378 737Q378 704 359 682T309 660Q288 660 273 677Z" />
<glyph unicode="&#xf0;" glyph-name="eth" horiz-adv-x="571" d="M253 759T226 774T175 796L195 854Q249 840 326 792Q345 813 369 843T400 882L444 841L372 758Q454 685 493 596T532 398Q532 283 498 190T396 44T237 -10Q173 -10 128 22T60 106T37 213Q37 312
74 387T173 502T308 542Q347 542 377 532T423 501Q412 568 390 611T320 702L246 618L202 658L277 739Q253 759 226 774ZM259 490T222 447T166 336T147 199Q147 131 173 86T248 40Q310 40 355 106T414 273Q421 329 421 366Q421 384 411 413T375 466T309 490Q259
490 222 447Z" />
<glyph unicode="&#xf1;" glyph-name="ntilde" horiz-adv-x="622" d="M260 496T314 532T425 568Q482 568 512 534T543 423Q543 386 524 283L518 247L513 218Q495 131 494 86V80Q494 54 507 54Q527 54 554 78L567 51Q555 34 523 12T450 -10Q383 -10 383 53Q383 84
402 183L409 220L413 244Q435 361 435 413Q434 459 421 476T376 493Q338 493 291 455T209 360L161 0H58L122 482L72 507L80 545L210 568L231 557L219 439Q260 496 314 532ZM199 738T226 757T286 776Q313 776 330 767T369 740Q384 727 395 721T421 714Q444 714 456
723T477 743T488 758L522 717Q511 684 482 663T414 642Q387 642 370 651T335 677Q319 691 307 697T278 704Q256 704 243 696T213 669L185 708Q199 738 226 757Z" />
<glyph unicode="&#xf2;" glyph-name="ograve" horiz-adv-x="574" d="M429 568T482 508T535 337Q535 246 499 166T396 38T245 -11Q146 -11 93 49T40 220Q40 312 76 392T179 520T330 568Q429 568 482 508ZM264 513T227 470T172 360T153 224Q153 42 262 42Q313 42
349 86T403 197T421 333Q421 513 316 513Q264 513 227 470ZM328 666T265 723T183 814L255 881L400 673L365 645Q328 666 265 723Z" />
<glyph unicode="&#xf3;" glyph-name="oacute" horiz-adv-x="567" d="M484 873L551 807Q541 790 505 754T428 683T358 634L326 665L484 873ZM429 568T482 508T535 337Q535 246 499 166T396 38T245 -11Q146 -11 93 49T40 220Q40 312 76 392T179 520T330 568Q429
568 482 508ZM264 513T227 470T172 360T153 224Q153 42 262 42Q313 42 349 86T403 197T421 333Q421 513 316 513Q264 513 227 470Z" />
<glyph unicode="&#xf4;" glyph-name="ocircumflex" horiz-adv-x="574" d="M429 568T482 508T535 337Q535 246 499 166T396 38T245 -11Q146 -11 93 49T40 220Q40 312 76 392T179 520T330 568Q429 568 482 508ZM264 513T227 470T172 360T153 224Q153 42 262 42Q313
42 349 86T403 197T421 333Q421 513 316 513Q264 513 227 470ZM385 840L473 744L489 656L399 716L268 688L194 657L271 764L385 840Z" />
<glyph unicode="&#xf5;" glyph-name="otilde" horiz-adv-x="574" d="M429 568T482 508T535 337Q535 246 499 166T396 38T245 -11Q146 -11 93 49T40 220Q40 312 76 392T179 520T330 568Q429 568 482 508ZM264 513T227 470T172 360T153 224Q153 42 262 42Q313 42
349 86T403 197T421 333Q421 513 316 513Q264 513 227 470ZM199 742T226 761T286 780Q313 780 330 771T369 744Q384 731 395 725T421 718Q444 718 456 727T477 747T488 762L522 721Q511 688 482 667T414 646Q387 646 370 655T335 681Q319 695 307 701T278 708Q256
708 243 700T213 673L185 712Q199 742 226 761Z" />
<glyph unicode="&#xf6;" glyph-name="odieresis" horiz-adv-x="574" d="M429 568T482 508T535 337Q535 246 499 166T396 38T245 -11Q146 -11 93 49T40 220Q40 312 76 392T179 520T330 568Q429 568 482 508ZM264 513T227 470T172 360T153 224Q153 42 262 42Q313
42 349 86T403 197T421 333Q421 513 316 513Q264 513 227 470ZM220 664T204 681T188 722Q188 753 207 775T255 797Q280 797 295 780T310 739Q309 707 290 686T240 664Q220 664 204 681ZM430 664T415 681T399 722Q399 753 417 775T465 797Q490 797 505 781T520 741Q520
708 501 686T451 664Q430 664 415 681Z" />
<glyph unicode="&#xf7;" glyph-name="divide" horiz-adv-x="669" d="M343 509T328 524T312 565Q312 599 335 621T387 644Q414 644 428 629T442 588Q442 552 419 531T365 509Q343 509 328 524ZM571 415L565 341H128L135 415H571ZM263 202T286 224T338 246Q365 246
379 231T393 190Q393 154 370 133T315 111Q293 111 278 127T263 169Q263 202 286 224Z" />
<glyph unicode="&#xf8;" glyph-name="oslash" horiz-adv-x="568" d="M493 500T511 452T530 338Q530 247 494 167T391 39T240 -10Q182 -10 136 12L85 -65L47 -44L101 37Q69 67 52 113T35 219Q35 311 71 391T174 520T326 569Q380 569 419 551L472 633L510 611L457
529Q493 500 511 452ZM351 513T311 513Q259 513 222 469T167 358T148 221Q148 162 166 129L374 484Q351 513 311 513ZM210 43T257 43Q308 43 344 87T399 200T417 337Q417 407 394 441L183 83Q210 43 257 43Z" />
<glyph unicode="&#xf9;" glyph-name="ugrave" horiz-adv-x="601" d="M188 247Q178 165 178 137Q178 90 194 72T243 54Q279 54 317 79T382 141L438 563H542L478 90L477 79Q477 67 481 61T493 54Q513 54 544 84L557 57Q545 38 512 15T439 -9Q408 -9 392 7T378 52Q378
50 381 86L380 87Q300 -10 200 -10Q143 -10 108 20T72 121Q72 168 91 295L117 481L64 510L71 548L207 567L228 556L194 291L188 247ZM336 662T273 719T191 810L263 877L408 669L373 641Q336 662 273 719Z" />
<glyph unicode="&#xfa;" glyph-name="uacute" horiz-adv-x="601" d="M188 247Q178 165 178 137Q178 90 194 72T243 54Q279 54 317 79T382 141L438 563H542L478 90L477 79Q477 67 481 61T493 54Q513 54 544 84L557 57Q545 38 512 15T439 -9Q408 -9 392 7T378 52Q378
50 381 86L380 87Q300 -10 200 -10Q143 -10 108 20T72 121Q72 168 91 295L117 481L64 510L71 548L207 567L228 556L194 291L188 247ZM453 877L521 811Q511 794 475 758T397 687T327 638L295 669L453 877Z" />
<glyph unicode="&#xfb;" glyph-name="ucircumflex" horiz-adv-x="601" d="M188 247Q178 165 178 137Q178 90 194 72T243 54Q279 54 317 79T382 141L438 563H542L478 90L477 79Q477 67 481 61T493 54Q513 54 544 84L557 57Q545 38 512 15T439 -9Q408 -9 392 7T378
52Q378 50 381 86L380 87Q300 -10 200 -10Q143 -10 108 20T72 121Q72 168 91 295L117 481L64 510L71 548L207 567L228 556L194 291L188 247ZM393 836L481 740L497 652L407 712L276 684L202 653L279 760L393 836Z" />
<glyph unicode="&#xfc;" glyph-name="udieresis" horiz-adv-x="601" d="M188 247Q178 165 178 137Q178 90 194 72T243 54Q279 54 317 79T382 141L438 563H542L478 90L477 79Q477 67 481 61T493 54Q513 54 544 84L557 57Q545 38 512 15T439 -9Q408 -9 392 7T378
52Q378 50 381 86L380 87Q300 -10 200 -10Q143 -10 108 20T72 121Q72 168 91 295L117 481L64 510L71 548L207 567L228 556L194 291L188 247ZM228 660T212 677T196 718Q196 749 215 771T263 793Q288 793 303 776T318 735Q317 703 298 682T248 660Q228 660 212 677ZM438
660T423 677T407 718Q407 749 425 771T473 793Q498 793 513 777T528 737Q528 704 509 682T459 660Q438 660 423 677Z" />
<glyph unicode="&#xfd;" glyph-name="yacute" horiz-adv-x="529" d="M78 486T73 492T59 499Q44 499 23 479L10 508Q21 524 51 545T116 567Q151 567 166 550T187 500L242 123L256 -1L320 125L334 154Q378 245 399 305T420 426Q420 445 415 459T409 475Q399 499
399 516Q399 540 412 553T450 566Q481 566 498 541T516 474Q516 424 500 371T464 277T406 162Q362 71 313 -12T228 -143Q196 -194 152 -221T47 -249Q23 -249 -6 -244T-48 -232L-23 -156Q-12 -165 11 -172T62 -179Q106 -179 151 -145T235 -38H181L82 468Q78 486
73 492ZM413 877L481 811Q471 794 435 758T357 687T287 638L255 669L413 877Z" />
<glyph unicode="&#xfe;" glyph-name="thorn" horiz-adv-x="579" d="M245 523T285 545T373 568Q455 568 497 511T540 356Q540 268 501 184T390 45T222 -10Q194 -10 150 0L145 -59L118 -254H18L52 -5L149 735L100 753L109 789L237 806L259 793L219 490Q245 523 285
545ZM186 45T234 45Q298 45 342 92T409 210T431 353Q431 421 408 461T340 501Q300 501 265 476T209 419L162 63Q186 45 234 45Z" />
<glyph unicode="&#xff;" glyph-name="ydieresis" horiz-adv-x="529" d="M78 486T73 492T59 499Q44 499 23 479L10 508Q21 524 51 545T116 567Q151 567 166 550T187 500L242 123L256 -1L320 125L334 154Q378 245 399 305T420 426Q420 445 415 459T409 475Q399 499
399 516Q399 540 412 553T450 566Q481 566 498 541T516 474Q516 424 500 371T464 277T406 162Q362 71 313 -12T228 -143Q196 -194 152 -221T47 -249Q23 -249 -6 -244T-48 -232L-23 -156Q-12 -165 11 -172T62 -179Q106 -179 151 -145T235 -38H181L82 468Q78 486
73 492ZM188 660T172 677T156 718Q156 749 175 771T223 793Q248 793 263 776T278 735Q277 703 258 682T208 660Q188 660 172 677ZM398 660T383 677T367 718Q367 749 385 771T433 793Q458 793 473 777T488 737Q488 704 469 682T419 660Q398 660 383 677Z" />
<glyph unicode="&#x2013;" glyph-name="endash" horiz-adv-x="760" d="M663 358L651 284H108L120 358H663Z" />
<glyph unicode="&#x2014;" glyph-name="emdash" horiz-adv-x="1084" d="M1038 358L1025 284H108L120 358H1038Z" />
<glyph unicode="&#x2018;" glyph-name="quoteleft" horiz-adv-x="337" d="M144 466T122 505T100 595Q100 684 155 748T289 845L310 809V799Q284 790 258 764T215 702T198 629Q198 595 213 571T256 542L253 524L189 454Q144 466 122 505Z" />
<glyph unicode="&#x2019;" glyph-name="quoteright" horiz-adv-x="337" d="M276 831T298 792T320 702Q320 613 265 549T131 452L110 488V498Q136 507 162 533T205 595T222 668Q222 702 207 726T164 755L167 773L231 843Q276 831 298 792Z" />
<glyph unicode="&#x201a;" glyph-name="quotesinglbase" horiz-adv-x="333" d="M191 129T213 90T235 0Q235 -89 180 -153T46 -250L25 -214V-204Q51 -195 77 -169T120 -107T137 -34Q137 0 122 24T79 53L82 71L146 141Q191 129 213 90Z" />
<glyph unicode="&#x201c;" glyph-name="quotedblleft" horiz-adv-x="571" d="M382 466T360 505T338 595Q338 684 393 748T527 845L548 809V799Q522 790 496 764T453 702T436 629Q436 595 451 571T494 542L491 524L427 454Q382 466 360 505ZM144 466T122 505T100
595Q100 684 155 748T289 845L310 809V799Q284 790 258 764T215 702T198 629Q198 595 213 571T256 542L253 524L189 454Q144 466 122 505Z" />
<glyph unicode="&#x201d;" glyph-name="quotedblright" horiz-adv-x="571" d="M516 831T538 792T560 702Q560 613 505 549T371 452L350 488V498Q376 507 402 533T445 595T462 668Q462 702 447 726T404 755L407 773L471 843Q516 831 538 792ZM279 831T301 792T323
702Q323 613 268 549T134 452L113 488V498Q139 507 165 533T208 595T225 668Q225 702 210 726T167 755L170 773L234 843Q279 831 301 792Z" />
<glyph unicode="&#x201e;" glyph-name="quotedblbase" horiz-adv-x="571" d="M188 129T210 90T232 0Q232 -89 177 -153T43 -250L22 -214V-204Q48 -195 74 -169T117 -107T134 -34Q134 0 119 24T76 53L79 71L143 141Q188 129 210 90ZM421 129T443 90T465 0Q465 -89
410 -153T276 -250L255 -214V-204Q281 -195 307 -169T350 -107T367 -34Q367 0 352 24T309 53L312 71L376 141Q421 129 443 90Z" />
<glyph unicode="&#x2022;" glyph-name="bullet" horiz-adv-x="419" d="M168 258T144 283T120 343Q120 389 151 422T231 456Q265 456 288 432T312 374Q312 326 282 292T201 258Q168 258 144 283Z" />
<glyph unicode="&#x2039;" glyph-name="guilsinglleft" horiz-adv-x="415" d="M381 524L178 296L308 81L258 49L59 273L70 334L332 554L381 524Z" />
<glyph unicode="&#x203a;" glyph-name="guilsinglright" horiz-adv-x="415" d="M363 334L352 263L91 49L42 81L245 301L112 524L165 554L363 334Z" />
</font>
</defs>
</svg>
